The Meg 2018 SUBBED 720p WEBRip x264 [MW]

General
Format : Matroska
Format version : Version 4 / Version 2
File size : 1.04 GiB
Duration : 1 h 54 min
Overall bit rate : 1 296 kb/s

Video
ID : 1
Format : AVC
Format/Info : Advanced Video Codec
Format profile : [email protected]
Format settings : CABAC / 4 Ref Frames
Format settings, CABAC : Yes
Format settings, RefFrames : 4 frames
Codec ID : V_MPEG4/ISO/AVC
Duration : 1 h 54 min
Bit rate : 1 200 kb/s
Width : 1 280 pixels
Height : 536 pixels
Display aspect ratio : 2.40:1
Frame rate mode : Constant
Frame rate : 23.976 (24000/1001) FPS
Color space : YUV
Chroma subsampling : 4:2:0
Bit depth : 8 bits
Scan type : Progressive
Bits/(Pixel*Frame) : 0.073
Stream size : 956 MiB (90%)
Writing library : x264 core 155 r2901 7d0ff22
Default : Yes
Forced : No

Audio
ID : 2
Format : AAC
Format/Info : Advanced Audio Codec
Format profile : LC
Codec ID : A_AAC-2
Duration : 1 h 54 min
Bit rate : 128 kb/s
Channel(s) : 2 channels
Channel positions : Front: L R
Sampling rate : 48.0 kHz
Frame rate : 46.875 FPS (1024 SPF)
Compression mode : Lossy
Stream size : 105 MiB (10%)
Language : English
Default : Yes
Forced : No






 

Size: 1.0 GB
Seeds: 139
Peers: 126
Hash: 7A950C17BCE145F59CA802A4208BD8AA5B3EF594

Magnet Download

Download

The Meg 2018 SUBBED 720p WEBRip x264 [MW] Fast Download



How to download Torrent ?
Download and install UTorrent best bittorrent client.
Download torrent file from Download Torrent button.
Open file with utorrent and it will start downloading.
Enjoy !

Search More Torrents
Download The Meg 2018 SUBBED 720p WEBRip x264 [MW] torrent. We have verified torrents collection from 1337x BTScene RARBG YTS and other similar sites

You may also like...