B.A. Pass 2 (2017) Hindi – 1080p – UnCut – x264 – 1.2GB – Mp3 – ESub – MovCr

Video
ID : 1
Format : AVC
Format/Info : Advanced Video Codec
Format profile : [email protected]
Format settings, CABAC : Yes
Format settings, RefFrames : 3 frames
Codec ID : V_MPEG4/ISO/AVC
Duration : 2 h 8 min
Bit rate : 1 018 kb/s
Width : 1 920 pixels
Height : 820 pixels
Display aspect ratio : 2.35:1
Frame rate mode : Constant
Frame rate : 24.000 FPS
Color space : YUV
Chroma subsampling : 4:2:0
Bit depth : 8 bits
Scan type : Progressive
Bits/(Pixel*Frame) : 0.027
Stream size : 936 MiB (76%)
Title : www.MovCr.com
Default : Yes
Forced : No
Color range : Limited
Color primaries : BT.709
Transfer characteristics : BT.709
Matrix coefficients : BT.709

Audio
ID : 2
Format : MPEG Audio
Format version : Version 1
Format profile : Layer 3
Mode : Joint stereo
Mode extension : MS Stereo
Codec ID : A_MPEG/L3
Codec ID/Hint : MP3
Duration : 2 h 8 min
Bit rate mode : Constant
Bit rate : 320 kb/s
Channel(s) : 2 channels
Sampling rate : 44.1 kHz
Frame rate : 38.281 FPS (1152 SPF)
Compression mode : Lossy
Stream size : 294 MiB (24%)
Title : www.MovCr.com
Writing library : LAME3.99.5
Default : Yes
Forced : No

Text
ID : 3
Format : UTF-8
Codec ID : S_TEXT/UTF8
Codec ID/Info : UTF-8 Plain Text
Duration : 1 h 57 min
Bit rate : 52 b/s
Count of elements : 1263
Stream size : 45.3 KiB (0%)
Title : www.MovCr.com
Default : Yes
Forced : No

 

 

Size: 1.2 GB
Seeds: 146
Peers: 108
Hash: E1A1F2A2F8FCA26654B3C288321D92480E02F7BA

Magnet Download

Download

B.A. Pass 2 (2017) Hindi – 1080p – UnCut – x264 – 1.2GB – Mp3 – ESub – MovCr Fast Download



How to download Torrent ?
Download and install UTorrent best bittorrent client.
Download torrent file from Download Torrent button.
Open file with utorrent and it will start downloading.
Enjoy !

Search More Torrents
Download B.A. Pass 2 (2017) Hindi – 1080p – UnCut – x264 – 1.2GB – Mp3 – ESub – MovCr torrent. We have verified torrents collection from 1337x BTScene RARBG YTS and other similar sites

You may also like...