The Fate of the Furious 2017 720p Esub HD Dual Audio English Hindi GOPI SAHI

The Fate of the Furious 2017 720p Esub HD Dual Audio English Hindi GOPI SAHI
Duration : 2 h 4 min
Bit rate : 52 b/s
Count of elements : 1507
Stream size : 48.0 KiB (0%)
Language : English

Video
ID : 1
Format : HEVC
Codec ID : V_MPEGH/ISO/HEVC
Duration : 2 h 15 min
Bit rate : 640 kb/s
Width : 1 280 pixels
Height : 532 pixels
Display aspect ratio : 2.40:1
Frame rate mode : Variable
Frame rate : 23.976 FPS
Original frame rate : 25.000 FPS
Bits/(Pixel*Frame) : 0.039
Stream size : 623 MiB (83%)
Writing library : x265 2.4+9-dccf02340c75:[Linux][GCC 5.4.0][64 bit] 8bit

Audio #1
Format : AAC
Duration : 2 h 15 min
Bit rate : 81.1 kb/s
Channel(s) : 2 channels
Channel positions : Front: L R
Sampling rate : 48.0 kHz
Frame rate : 46.875 FPS (1024 spf)
Stream size : 78.8 MiB (10%)
Language : English

Audio #2
Format : AAC
Duration : 2 h 15 min
Bit rate : 51.4 kb/s
Channel(s) : 6 channels
Channel positions : Front: L C R, Side: L R, LFE
Sampling rate : 44.1 kHz
Frame rate : 43.066 FPS (1024 spf)
Stream size : 50.0 MiB (7%)
Language : Hindi

 

Size: 759.7 MB
Hash: AB2BB9B60C2E9CD701FC865945BDD538B3395B82
magnet: ?xt=urn:btih:AB2BB9B60C2E9CD701FC865945BDD538B3395B82

Download Torrent:

https://itorrents.org/torrent/AB2BB9B60C2E9CD701FC865945BDD538B3395B82.torrent

http://torrage.info/torrent.php?h=AB2BB9B60C2E9CD701FC865945BDD538B3395B82

Download

The Fate of the Furious 2017 720p Esub HD Dual Audio English Hindi GOPI SAHI Fast Download



How to download Torrent ?
Download and install UTorrent best bittorrent client.
Download torrent file from Download Torrent button.
Open file with utorrent and it will start downloading.
Enjoy !

Search More Torrents
Download The Fate of the Furious 2017 720p Esub HD Dual Audio English Hindi GOPI SAHI torrent. We have verified torrents collection from 1337x BTScene RARBG YTS and other similar sites

You may also like...