Hercules 2014 BluRay 1080p x264 AAC.5.1 – Hon3y

Format : Matroska
Format version : Version 4 / Version 2
File size : 2.34 GiB
Duration : 1 h 41 min
Overall bit rate : 3 300 kb/s

Video
ID : 1
Format : AVC
Format/Info : Advanced Video Codec
Format settings, CABAC : Yes
Format settings, RefFrames : 5 frames
Codec ID : V_MPEG4/ISO/AVC
Duration : 1 h 41 min
Bit rate : 3 000 kb/s
Width : 1 920 pixels
Height : 800 pixels
Display aspect ratio : 2.40:1
Frame rate mode : Constant
Frame rate : 23.976 (24000/1001) FPS

Audio
ID : 2
Format : AAC
Format/Info : Advanced Audio Codec
Format profile : LC
Codec ID : A_AAC
Duration : 1 h 41 min
Bit rate : 319 kb/s
Channel(s) : 6 channels
Channel positions : Front: L C R, Side: L R, LFE
Sampling rate : 48.0 kHz

Text #1
ID : 3
Format : PGS
Muxing mode : zlib
Codec ID : S_HDMV/PGS
Codec ID/Info : Picture based subtitle format used on BDs/HD-DVDs
Duration : 1 h 33 min
Bit rate : 27.9 kb/s
Count of elements : 1946
Stream size : 18.7 MiB (1%)
Language : English
Default : No
Forced : No

Text #2
ID : 4
Format : PGS
Muxing mode : zlib
Codec ID : S_HDMV/PGS
Codec ID/Info : Picture based subtitle format used on BDs/HD-DVDs
Duration : 1 h 35 min
Bit rate : 24.5 kb/s
Count of elements : 1956
Stream size : 16.8 MiB (1%)
Language : French
Default : No
Forced : No

Text #3
ID : 5
Format : PGS
Muxing mode : zlib
Codec ID : S_HDMV/PGS
Codec ID/Info : Picture based subtitle format used on BDs/HD-DVDs
Duration : 1 h 35 min
Bit rate : 26.3 kb/s
Count of elements : 1860
Stream size : 18.0 MiB (1%)
Language : Spanish
Default : No
Forced : No

Menu
00:00:00.000 : :00:00:00.000
00:08:10.782 : :00:08:10.782
00:14:15.813 : :00:14:15.813
00:23:38.250 : :00:23:38.250
00:31:23.757 : :00:31:23.757
00:41:12.136 : :00:41:12.136
00:51:34.341 : :00:51:34.341
00:57:31.281 : :00:57:31.281
01:05:57.620 : :01:05:57.620
01:16:07.855 : :01:16:07.855
01:24:28.897 : :01:24:28.897
01:34:24.701 : :01:34:24.701

Screens

 

Size: 2.40 GB
Seeds: 58
Peers: 94
Hash: 59FB100811524F368D187D95CCB3BEE5BDAC799A

Magnet

Download:

Download From iTorrents