Jolly LLB 2. (2017) – DesiSCR.Rip – HEVC – x265.AAC – 1CD – DDR

31d311f48c885019ba4ae132f7588544.jpg

Jolly LLB 2. (2017) – DesiSCR.Rip – HEVC – x265.AAC – 1CD – DDR
Format : Matroska
Format version : Version 4 / Version 2
File size : 700 MiB
Duration : 2 h 16 min
Overall bit rate : 717 kb/s
bit rate mode : constant
Writing application : mkvmerge v9.8.0 (‘Kuglblids’) 64bit
Writing library : libebml v1.3.4 + libmatroska v1.4.5

Video
Format/Info : HEVC (High Efficiency Video Coding)
Format profile : Main [email protected]@Main
Codec ID : V_MPEGH/ISO/HEVC
Duration : 2 h 16 min
Bit rate : 587 kb/s
Width : 720 pixels
Height : 304 pixels
Display aspect ratio : 2.35:1
Frame rate mode : Constant
Frame rate : 25.0000 FPS
Color space : YUV
Chroma subsampling : 4:2:0
Bit depth : 10 bits
Bits/(Pixel*Frame) : 0.107
Stream size : 573 MiB (82%)
Writing library : x265 2.2+2-998d4520d1cf:[Windows][GCC 6.2.0][64 bit] 10bit

Audio
Format : AAC
Format/Info : Advanced Audio Codec
Format profile : HE-AAC / LC
Codec ID : A_AAC
Duration : 2 h 16 min
Bit rate : 128 kb/s
Channel(s) : 2 channels
Channel positions : Front: L R
Sampling rate : 48.0 kHz / 24.0 kHz
Frame rate : 23.438 FPS (1024 spf)
Compression mode : Lossy
Delay relative to video : 31 ms
Stream size : 125 MiB (16%)
Language : Hindi

Source, Chapters & Subtitles
Source: [email protected]
Chapters: 2
Subtitles: None

 

1207930cc814abd7db151869cad62ce1.th.pngb3f6c66cf2ced37bfbf90ace0a52c822.th.pngdcaee0ff42f81d40f4af96096ac3a490.th.pngac51ec4127f4582cab73f3fcad3c6660.th.png
a98b51089d0835882071bb2bf31fcaaa.th.png0aa5ee4aeda55a99139efb6c7e162b05.th.pngca4b5b07636b4272581c673e03f6f261.th.png59114e7875ca5a33c068ead921c1d7dd.th.png
38e74a9e823ec7e972d78e3b1aa97d3d.th.pngd8c6569350395100e2c1b29b10103b0d.th.png6ad70d1f6eb4c30610bcb73c949ba4e2.th.png3e03cd3ca9fa700ec874c83d8736e373.th.png

 

Size: 699.84 MB
Seeds: 8089
Peers: 10532
Hash: 56FFD6570457074F1C899982556A3569B09CB6CB
magnet: ?xt=urn:btih:56FFD6570457074F1C899982556A3569B09CB6CB
Stream :    WATCH ONLINE @ Openload Movies

Download Torrent:
Download Source 1
Download Source 2
Download Source 3

Tag : , ,

Leave a Comment