Karwaan (2018) HDRip 720p Hindi x264 AAC

Format                      : Matroska
Format version              : Version 4 / Version 2
File size                   : 1.01 GiB
Duration                    : 1 h 53 min
Overall bit rate            : 1 267 kb/s
Movie name                  : LatestHDmovies.Org – Karwaan (2018) 720p Hindi
Encoded date                : UTC 2018-09-30 22:53:13
Writing application         : mkvmerge v26.0.0 (‘In The Game’) 64-bit
Writing library             : libebml v1.3.6 + libmatroska v1.4.9

Video
ID                          : 1
Format                      : AVC
Format/Info                 : Advanced Video Codec
Format profile              : [email protected]
Format settings             : CABAC / 1 Ref Frames
Format settings, CABAC      : Yes
Format settings, ReFrames   : 1 frame
Format settings, GOP        : M=1, N=60
Codec ID                    : V_MPEG4/ISO/AVC
Duration                    : 1 h 53 min
Bit rate                    : 1 137 kb/s
Width                       : 1 280 pixels
Height                      : 546 pixels
Display aspect ratio        : 2.35:1
Frame rate mode             : Constant
Frame rate                  : 24.000 FPS
Color space                 : YUV
Chroma subsampling          : 4:2:0
Bit depth                   : 8 bits
Scan type                   : Progressive
Bits/(Pixel*Frame)          : 0.068
Stream size                 : 926 MiB (90%)
Title                       : LatestHDmovies.Org
Default                     : Yes
Forced                      : No
Color range                 : Limited
Color primaries             : BT.709
Transfer characteristics    : BT.709
Matrix coefficients         : BT.709

Audio
ID                          : 2
Format                      : AAC LC
Format/Info                 : Advanced Audio Codec Low Complexity
Codec ID                    : A_AAC-2
Duration                    : 1 h 53 min
Bit rate                    : 128 kb/s
Channel(s)                  : 2 channels
Channel layout              : L R
Sampling rate               : 44.1 kHz
Frame rate                  : 43.066 FPS (1024 SPF)
Compression mode            : Lossy
Stream size                 : 104 MiB (10%)
Title                       : LatestHDmovies.Org
Language                    : Hindi
Default                     : Yes
Forced                      : No








 

Size: 1.0 GB
Seeds: 414
Peers: 204
Hash: 10BBD87112E33F3E7906642B7B0A68444879C6E0

Magnet Download

Download

Karwaan (2018) HDRip 720p Hindi x264 AAC Fast Download



How to download Torrent ?
Download and install UTorrent best bittorrent client.
Download torrent file from Download Torrent button.
Open file with utorrent and it will start downloading.
Enjoy !

Search More Torrents
Download Karwaan (2018) HDRip 720p Hindi x264 AAC torrent. We have verified torrents collection from 1337x BTScene RARBG YTS and other similar sites

You may also like...