Love Lies 2016 KOREAN 1080p BluRay x264 AAC 5.1-Hon3y

Love Lies 2016 KOREAN 1080p BluRay x264 AAC 5.1-Hon3y
Format : Matroska
Format version : Version 4 / Version 2
File size : 2.77 GiB
Duration : 1 h 59 min
Overall bit rate : 3 313 kb/s
Movie name : Love Lies 2016 Korean -Hon3y

Video
ID : 1
Format : AVC
Format/Info : Advanced Video Codec
Format settings, CABAC : Yes
Format settings, ReFrames : 4 frames
Codec ID : V_MPEG4/ISO/AVC
Duration : 1 h 59 min
Bit rate : 3 000 kb/s
Width : 1 920 pixels
Height : 1 040 pixels
Display aspect ratio : 1.85:1
Frame rate mode : Constant
Frame rate : 23.976 (24000/1001) FPS

Audio
ID : 2
Format : AAC
Format/Info : Advanced Audio Codec
Format profile : LC
Codec ID : A_AAC
Duration : 1 h 59 min
Bit rate : 320 kb/s
Channel(s) : 6 channels
Channel positions : Front: L C R, Side: L R, LFE
Sampling rate : 48.0 kHz
Frame rate : 46.875 FPS (1024 spf)
Compression mode : Lossy
Delay relative to video : 9 ms
Stream size : 274 MiB (10%)
Language : Korean
Default : Yes
Forced : No

Text #1
ID : 3
Format : UTF-8
Codec ID : S_TEXT/UTF8
Codec ID/Info : UTF-8 Plain Text
Duration : 1 h 55 min
Bit rate : 31 b/s
Count of elements : 1269
Stream size : 26.8 KiB (0%)
Title : Simplified
Language : Chinese
Default : Yes
Forced : No

Text #2
ID : 4
Format : UTF-8
Codec ID : S_TEXT/UTF8
Codec ID/Info : UTF-8 Plain Text
Duration : 1 h 55 min
Bit rate : 31 b/s
Count of elements : 1269
Stream size : 26.8 KiB (0%)
Title : Traditional
Language : Chinese
Default : No
Forced : No

Menu
00:00:00.000 : en:00:00:00.000
00:10:09.859 : en:00:10:09.859
00:18:50.754 : en:00:18:50.754
00:28:17.278 : en:00:28:17.278
00:35:37.802 : en:00:35:37.802
00:44:42.846 : en:00:44:42.846
00:56:31.888 : en:00:56:31.888
01:05:58.329 : en:01:05:58.329
01:14:15.951 : en:01:14:15.951
01:25:26.371 : en:01:25:26.371
01:36:03.132 : en:01:36:03.132
01:44:24.091 : en:01:44:24.091

Screens

 

Size: 2.80 GB
Seeds: 42
Peers: 77
Hash: 9FFD7321BF361F622033FA670B4552DB5FE58273

Magnet

Download:

Download From iTorrents