Spider-Man Homecoming 2017 HDRip AAC x264-MiniMe

http://lx1.dyncdn.cc/cdn/04/04a2b4bdc50ff79a5b7137af0367ea27.jpg

Summary : Peter Parker tries to balance his life as an ordinary high school student in Queens with his superhero alter-ego Spider-Man, and must confront a new menace prowling the skies of New York City.

Video Info
———-

Format : AVC
Format/Info : Advanced Video Codec
Format profile : [email protected]
Format settings, CABAC : Yes
Format settings, ReFrames : 3 frames
Codec ID : avc1
Codec ID/Info : Advanced Video Coding
Duration : 2 h 6 min
Bit rate mode : Variable
Bit rate : 512 kb/s
Maximum bit rate : 40.0 Mb/s
Width : 720 pixels
Height : 304 pixels
Display aspect ratio : 2.35:1
Frame rate mode : Constant
Frame rate : 23.976 (24000/1001) FPS
Color space : YUV
Chroma subsampling : 4:2:0
Bit depth : 8 bits
Scan type : Progressive
Bits/(Pixel*Frame) : 0.098
Stream size : 461 MiB (92%)
Writing library : x264 core 152 r2851 ba24899

Audio Info
———-

Format : AAC
Format/Info : Advanced Audio Codec
Format profile : LC
Codec ID : 40
Duration : 2 h 6 min
Bit rate mode : Variable
Bit rate : 40.0 kb/s
Maximum bit rate : 52.2 kb/s
Channel(s) : 2 channels
Channel positions : Front: L R
Sampling rate : 48.0 kHz
Frame rate : 46.875 FPS (1024 spf)
Compression mode : Lossy
Stream size : 36.1 MiB (7%)

 

 

NTkkLss.png
TTVZqWa.png
mOEsUKI.png

Size: 500.9 MB
Seeds: 50
Peers: 116
Hash: B9BD06C1AEF8092B6BDBC0D5907C337E421DF393
magnet: ?xt=urn:btih:B9BD06C1AEF8092B6BDBC0D5907C337E421DF393

 

 

Download Torrent:
Download From iTorrents
Download From Torrage
Download From Btcache

Download

Spider-Man Homecoming 2017 HDRip AAC x264-MiniMe Fast Download



How to download Torrent ?
Download and install UTorrent best bittorrent client.
Download torrent file from Download Torrent button.
Open file with utorrent and it will start downloading.
Enjoy !

Search More Torrents
Download Spider-Man Homecoming 2017 HDRip AAC x264-MiniMe torrent. We have verified torrents collection from 1337x BTScene RARBG YTS and other similar sites

You may also like...